Posted : 1 Month ago

  1. Christmas.Chalet.2019.UPtv.720p.HDTV.X264.Solar.mp4
  2. General
  3. Complete name                            : D:\Christmas.Chalet.2019.UPtv.720p.HDTV.X264.Solar.mp4
  4. Format                                   : MPEG-4
  5. Format profile                           : Base Media / Version 2
  6. Codec ID                                 : mp42 (isom/iso2/avc1/mp41)
  7. File size                                : 1.01 GiB
  8. Duration                                 : 1 h 28 min
  9. Overall bit rate                         : 1 637 kb/s
  10. Encoded date                             : UTC 2019-12-02 23:50:09
  11. Tagged date                              : UTC 2019-12-02 23:50:09
  12. Writing application                      : HandBrake 1.2.2 2019022300
  13.  
  14. Video
  15. ID                                       : 1
  16. Format                                   : AVC
  17. Format/Info                              : Advanced Video Codec
  18. Format profile                           : [email protected]
  19. Format settings                          : CABAC / 8 Ref Frames
  20. Format settings, CABAC                   : Yes
  21. Format settings, Reference frames        : 8 frames
  22. Codec ID                                 : avc1
  23. Codec ID/Info                            : Advanced Video Coding
  24. Duration                                 : 1 h 28 min
  25. Bit rate                                 : 1 500 kb/s
  26. Width                                    : 1 280 pixels
  27. Height                                   : 720 pixels
  28. Display aspect ratio                     : 16:9
  29. Frame rate mode                          : Constant
  30. Frame rate                               : 29.970 (30000/1001) FPS
  31. Color space                              : YUV
  32. Chroma subsampling                       : 4:2:0
  33. Bit depth                                : 8 bits
  34. Scan type                                : Progressive
  35. Bits/(Pixel*Frame)                       : 0.054
  36. Stream size                              : 951 MiB (92%)
  37. Writing library                          : x264 core 157 r2935 545de2f
  38. Encoding settings                        : cabac=1 / ref=8 / deblock=1:0:0 / analyse=0x1:0x131 / me=umh / subme=9 / psy=1 / psy_rd=1.00:0.00 / mixed_ref=1 / me_range=16 / chroma_me=1 / trellis=2 / 8x8dct=0 / cqm=0 / deadzone=21,11 / fast_pskip=1 / chroma_qp_offset=-2 / threads=6 / lookahead_threads=1 / sliced_threads=0 / nr=0 / decimate=1 / interlaced=0 / bluray_compat=0 / constrained_intra=0 / bframes=3 / b_pyramid=2 / b_adapt=2 / b_bias=0 / direct=3 / weightb=1 / open_gop=0 / weightp=2 / keyint=300 / keyint_min=30 / scenecut=40 / intra_refresh=0 / rc_lookahead=60 / rc=2pass / mbtree=1 / bitrate=1500 / ratetol=1.0 / qcomp=0.60 / qpmin=0 / qpmax=69 / qpstep=4 / cplxblur=20.0 / qblur=0.5 / vbv_maxrate=20000 / vbv_bufsize=25000 / nal_hrd=none / filler=0 / ip_ratio=1.40 / aq=1:1.00
  39. Encoded date                             : UTC 2019-12-02 23:50:09
  40. Tagged date                              : UTC 2019-12-02 23:50:09
  41. Color range                              : Limited
  42. Color primaries                          : BT.709
  43. Transfer characteristics                 : BT.709
  44. Matrix coefficients                      : BT.709
  45. Codec configuration box                  : avcC
  46.  
  47. Audio
  48. ID                                       : 2
  49. Format                                   : AAC LC
  50. Format/Info                              : Advanced Audio Codec Low Complexity
  51. Codec ID                                 : mp4a-40-2
  52. Duration                                 : 1 h 28 min
  53. Bit rate mode                            : Constant
  54. Bit rate                                 : 128 kb/s
  55. Channel(s)                               : 2 channels
  56. Channel layout                           : L R
  57. Sampling rate                            : 48.0 kHz
  58. Frame rate                               : 46.875 FPS (1024 SPF)
  59. Compression mode                         : Lossy
  60. Stream size                              : 81.1 MiB (8%)
  61. Title                                    : Stereo
  62. Language                                 : English
  63. Default                                  : Yes
  64. Alternate group                          : 1
  65. Encoded date                             : UTC 2019-12-02 23:50:09
  66. Tagged date                              : UTC 2019-12-02 23:50:09
  67.  
  68.  
  69.